#TITLE:DO YOU WANNA PLAY?!;
#SUBTITLE:;
#ARTIST:Extreme;
#TITLETRANSLIT:;
#SUBTITLETRANSLIT:;
#ARTISTTRANSLIT:;
#CREDIT:;
#BANNER:Do You Wanna Play-banner.png;
#BACKGROUND:Do You Wanna Play-bg.png;
#LYRICSPATH:;
#CDTITLE:;
#MUSIC:Do You Wanna Play.mp3;
#MUSICLENGTH:78.524;
#OFFSET:-0.740;
#SAMPLESTART:22.225;
#SAMPLELENGTH:12.000;
#SELECTABLE:YES;
#BPMS:0.000=200.000;
#STOPS:;
#BGCHANGES:;
#FIRSTBEAT:16.000;

#LASTBEAT:255.000;

#SONGFILENAME:Songs/ERICth MIX 2nd Style/wanna play/play.sm;

#HASMUSIC:1;

#HASBANNER:1;


//---------------dance-single - MANIAC----------------
#NOTES:
     dance-single:
     MANIAC:
     hard:
     9:
     0.637,0.934,0.395,0.484,0.331,281.000,31.000,38.000,0.000,0.000:

0000
0000
0000
0000
,
0000
0000
0000
0000
,
0000
0000
0000
0000
,
0000
0000
0000
0000
,
1000
1100
0001
0101
,
1000
1001
0001
1001
,
1000
1010
0001
0101
,
0010
0110
0100
0110
,
0010
1010
0100
0101
,
0001
1001
1000
1001
,
2000
3001
0200
0310
,
1000
0100
1000
0100
1000
0100
1000
0100
,
2000
0000
0000
0000
,
0000
0000
0000
3100
,
0020
0000
0000
0000
,
0000
0000
0000
0031
,
0200
0000
0000
0000
,
0000
0000
0000
0310
,
0110
0000
0000
1000
0001
1000
0001
0000
0000
1001
0000
0000
,
0000
2000
0002
3003
,
1000
0100
1000
0100
1000
0100
1000
0100
1000
0100
0000
0000
,
0010
0001
0010
0001
0010
0001
0010
0001
0010
0001
0000
0000
,
0100
0001
0100
0001
0100
0001
0100
0001
0100
0001
0000
0000
,
1000
0010
1000
0010
1000
0010
1000
0010
1000
0010
0000
0000
,
1000
0001
1000
0001
1000
0001
1000
0001
1000
0001
0000
0000
,
0010
0100
0010
0100
0010
0100
0010
0100
0010
0100
0000
0000
,
0010
0001
0100
0000
0010
1000
0000
1000
,
0100
0000
0100
1000
0000
1000
0001
0000
,
0010
1000
0100
1000
0010
1000
0100
1000
0010
1000
0100
1000
,
0010
1000
0100
1000
0010
1000
0100
1000
0010
1000
0000
0000
,
1000
0100
0001
0000
0001
0100
1000
0000
,
1000
0100
0001
0100
1000
0100
0001
0000
,
0001
0010
1000
0000
1000
0010
0001
0000
,
0001
0010
1000
0010
0001
0010
1000
0000
,
0011
1100
0011
1100
,
1010
0101
1010
0101
,
1001
0110
0110
1001
,
0001
1000
0001
1000
0001
0000
1001
0000
,
1000
0000
0000
0020
0000
0000
0000
0000
,
0130
0000
0000
0002
0000
0000
0000
0000
,
1003
0000
0000
0200
0000
0000
0000
0000
,
0310
0000
0000
0200
0000
0000
0000
0000
,
0301
0000
0000
0202
0000
0000
0303
0000
,
1000
0100
0010
0100
1000
0000
0000
0000
,
0001
0100
0010
0100
0001
0000
0000
0000
,
1000
0100
0001
0100
0010
0000
0000
0000
,
1000
0000
0000
0020
0000
0000
0000
0000
,
0130
0000
0000
0002
0000
0000
0000
0000
,
1003
0000
0000
0200
0000
0000
0000
0000
,
0310
0000
0000
0200
0000
0000
0000
0000
,
0301
0000
0000
0202
0000
0000
0303
0000
,
1000
0100
0010
0100
1000
0000
0000
0000
,
0001
0100
0010
0100
0001
0000
0000
0000
,
0010
0100
0010
0100
0010
0000
0000
0000
,
2000
3002
0203
0320
,
0032
0023
2030
3200
,
0320
0032
0203
2300
,
3200
0302
0023
0230
,
0320
0100
1000
0100
,
0001
0100
1000
0100
,
0031
0000
0001
0010
1000
0010
0001
0000
,
2002
0000
0000
3003
,
0010
1000
0100
0001
0100
1000
0010
1000
,
0100
0010
0100
0000
0010
0000
0110
0000;

//---------------dance-single - ANOTHER----------------
#NOTES:
     dance-single:
     ANOTHER:
     medium:
     7:
     0.373,0.568,0.153,0.293,0.000,170.000,12.000,23.000,0.000,0.000:

0000
0000
0000
0000
,
0000
0000
0000
0000
,
0000
0000
0000
0000
,
0000
0000
0000
0000
,
0000
0010
0000
1000
,
0000
0001
0000
0100
,
0000
0010
0000
1000
,
0000
0001
0000
1100
,
0000
0001
0000
1000
,
0000
0010
0000
0100
,
0001
0000
0001
0000
,
0001
1000
0001
0001
,
0002
0000
0000
0000
,
0000
0000
0000
1000
,
2000
0000
0000
0000
,
0000
0000
0000
0000
0000
3003
0010
0000
,
0020
0000
0000
0000
,
0000
0000
0030
0010
,
0010
0000
0000
0000
,
0000
0001
0001
0000
,
2000
0000
0000
0000
,
0100
0010
0010
0010
,
0100
0000
0000
0000
,
0100
0010
0010
0100
,
0001
0000
0000
0000
,
0100
0010
0010
0001
,
0010
0000
0010
0000
,
0100
0000
0010
0000
,
3002
0000
0000
0000
,
1003
0001
1000
0001
,
1000
0100
1000
0010
,
0100
0001
1000
0010
,
0100
0001
1000
0100
,
0010
0101
1000
0001
,
1000
0001
1000
1001
,
1001
1001
1001
1001
,
0010
0100
0001
1000
,
0001
1000
0001
1000
0001
0000
0001
0000
,
2000
0000
0000
3001
0000
0000
0000
0000
,
0001
0000
0000
1000
0000
0002
0000
0000
,
0000
0003
0000
1000
0000
0000
0000
0000
,
0001
1000
0000
0000
,
0010
0000
0000
1000
0000
0000
0100
0010
,
0000
0000
0001
1000
0100
0000
0000
0000
,
0001
1000
0100
1000
0001
0000
0000
0000
,
0010
1000
0001
1000
0001
0000
0000
0000
,
0100
0010
0001
1000
,
0100
0010
0001
0100
,
0010
1000
0100
0110
,
0110
0001
1000
0010
,
0010
0000
0100
0000
0001
0000
1000
0001
,
0010
0000
1100
0001
0000
0000
1100
0000
,
0001
1000
0010
1000
,
0001
0100
0010
0001
,
0002
0000
2003
0000
,
3002
0000
0000
0000
2003
0000
0000
3000
,
0200
0000
0000
0300
0020
0000
0000
0030
,
0200
0000
0000
0310
0020
0000
0000
0031
,
0002
0000
2003
0000
,
3200
0000
0320
0000
,
0032
0000
0000
0003
0200
0000
0000
0300
,
0020
0000
0000
0030
2000
0000
3000
0000
,
0001
0001
1000
0001
,
0001
1000
0001
0000
0001
0000
1001
0000;

//---------------dance-single - BASIC----------------
#NOTES:
     dance-single:
     BASIC:
     easy:
     5:
     0.280,0.365,0.025,0.025,0.000,150.000,2.000,2.000,0.000,0.000:

0000
0000
0000
0000
,
0000
0000
0000
0000
,
0000
0000
0000
0000
,
0000
0000
0000
0000
,
0000
1000
0000
1000
,
0000
0001
0000
0001
,
0000
1000
0000
1000
,
0000
0001
0000
0001
,
0000
0100
0000
0100
,
0000
0010
0000
0010
,
0000
0010
0000
0010
,
0000
0010
0010
0010
,
0001
0000
0000
0000
,
0000
0000
0000
1000
,
0001
0000
0000
0000
,
0000
0000
0000
0010
,
0001
0000
0000
0000
,
0000
0000
0000
0001
,
0001
0000
0000
0000
,
0000
1001
1001
0000
,
0001
1000
0100
1000
,
0001
1000
0100
1000
,
0001
0010
0001
0100
,
0001
0010
0001
0100
,
0001
1000
0001
1000
,
0001
1000
0010
1000
,
0100
0001
0100
1000
,
0100
0001
0100
1000
,
0100
0001
0100
1000
,
0010
0001
0010
1000
,
0010
1000
0100
1000
,
0010
1000
0100
1000
,
0001
1000
0010
1000
,
0001
0010
0001
1000
,
0100
1000
0001
0010
,
0001
1000
0100
0010
,
0100
0010
0100
0010
,
0010
0010
0020
0000
,
0130
0000
0100
0000
,
0000
0000
0000
0000
,
0100
0000
0100
0000
,
0000
0000
0000
0000
,
0010
0000
0010
0000
,
0001
1000
0100
0000
,
0001
1000
0100
0000
,
0001
1000
0100
0000
,
0010
0000
0100
0000
,
0000
0000
0000
0000
,
0010
0000
0001
0000
,
0000
0000
0000
0000
,
0100
0000
1000
0000
,
0001
0100
0010
0000
,
0010
0010
0010
0000
,
0001
0000
0001
0000
,
0001
0001
0001
0000
,
0001
0000
1000
0000
,
1000
1000
1000
0000
,
0010
0000
0100
0000
,
1000
0000
0001
0000
,
1000
0000
0001
0000
,
1000
0001
1000
0001
,
1000
0001
1000
0001
,
0002
0000
0000
0000
,
0000
0000
0000
1003;
